Dnes je

Přesný čas



Bitster.cz




sberbank.cz


Trust (2010) / EN,CZ

Místo pro špatné příspěvky nebo příspěvky s nefunkčními linky
Expert (1080p)
Příspěvky: 390
Registrován: 09 dub 2009 09:38

Trust (2010) / EN,CZ

Příspěvekod gogomiro » 26 čer 2011 17:07

Trust / 2010 / 1080p / DD 5.1 EN

original release Trust.2010.LIMITED.1080p.Bluray.x264-MaxHD

Obrázek

ObrázekObrázek
Obrázek
KódBitster.cz : neomezené stahování nyní rychlostí až 1Gb/s - TIP : 150 GB jen za 99 Kč:
Pouze registrovaní uživatelé mohou vidět odkazy. Registrujte se nebo Přihlašte.

Obrázek
KódBitster.cz : neomezené stahování nyní rychlostí až 1Gb/s - TIP : 150 GB jen za 99 Kč:
Pouze registrovaní uživatelé mohou vidět odkazy. Registrujte se nebo Přihlašte.

Obrázek Share-rapid , Hellshare, Euroshare, Fileserve, Filesonic [999mb]
KódBitster.cz : neomezené stahování nyní rychlostí až 1Gb/s - TIP : 150 GB jen za 99 Kč:
Pouze registrovaní uživatelé mohou vidět odkazy. Registrujte se nebo Přihlašte.

KódBitster.cz : neomezené stahování nyní rychlostí až 1Gb/s - TIP : 150 GB jen za 99 Kč:
Pouze registrovaní uživatelé mohou vidět odkazy. Registrujte se nebo Přihlašte.

KódBitster.cz : neomezené stahování nyní rychlostí až 1Gb/s - TIP : 150 GB jen za 99 Kč:
Pouze registrovaní uživatelé mohou vidět odkazy. Registrujte se nebo Přihlašte.

KódBitster.cz : neomezené stahování nyní rychlostí až 1Gb/s - TIP : 150 GB jen za 99 Kč:
Pouze registrovaní uživatelé mohou vidět odkazy. Registrujte se nebo Přihlašte.

KódBitster.cz : neomezené stahování nyní rychlostí až 1Gb/s - TIP : 150 GB jen za 99 Kč:
Pouze registrovaní uživatelé mohou vidět odkazy. Registrujte se nebo Přihlašte.

-= Pridaný záznam pre opravu dát 3% =-
-= Linky sú kombinovateľné / Links are interchangable =-
Obrázek
KódBitster.cz : neomezené stahování nyní rychlostí až 1Gb/s - TIP : 150 GB jen za 99 Kč:
Pouze registrovaní uživatelé mohou vidět odkazy. Registrujte se nebo Přihlašte.


cz titulky
KódBitster.cz : neomezené stahování nyní rychlostí až 1Gb/s - TIP : 150 GB jen za 99 Kč:
Pouze registrovaní uživatelé mohou vidět odkazy. Registrujte se nebo Přihlašte.


Obrázek
Naposledy upravil gogomiro dne 20 pro 2011 04:01, celkově upraveno 1

Expert (1080p)
Příspěvky: 348
Registrován: 12 úno 2010 20:21

Příspěvekod shelbygt » 05 črc 2011 13:00

Trust (2010) + CZ Titulky
Rel:Trust 2011 1080p BluRay True-HD 5.1 x264 dxva-HDLiTE

Obrázek
Jazyk:ENG
Titulky:CZ,ENG,SPA
Drama / Thriller
USA, 2010, 104 min
Režie:David Schwimmer
Hrají:Clive Owen, Catherine Keener, Viola Davis, Noah Emmerich, Jason Clarke, Liana Liberato, Gordon Michaels
Odkaz
KódBitster.cz : neomezené stahování nyní rychlostí až 1Gb/s - TIP : 150 GB jen za 99 Kč:
Pouze registrovaní uživatelé mohou vidět odkazy. Registrujte se nebo Přihlašte.

Obsah
Čtrnáctiletá dívka se stává obětí internetového sexuálního maniaka. Rodina se musí vypořádat s následky. Film poukazuje na nebezpečí dnešního chování rodičů a jejich dětí, které mají neomezený a nekontrolovaný přístup k internetu.
INFO
General / Container Stream #1
File Format.......................................Matroska
Play Time.........................................1h 45mn
Total File Size...................................8.24 GiB
Video Stream #1
Frame Width.......................................1 920 pixels
Frame Height......................................800 pixels
Frame Rate........................................23.976 fps
Display Aspect Ratio..............................2.40:1
Audio Stream #1
Codec.............................................TrueHD
Number of Audio Channels..........................6
Audio Channel's Positions.........................Front: L C R, Side: L R, LFE
Subtitle Stream #1
Language..........................................English
Format............................................PGS
Codec ID..........................................S_HDMV/PGS
Codec Info........................................The same subtitle format used on BDs/HD-DVDs
Subtitle Stream #2
Language..........................................Spanish
Format............................................PGS
Codec ID..........................................S_HDMV/PGS
Codec Info........................................The same subtitle format used on BDs/HD-DVDs
Subtitle Stream #3
Language..........................................Czech
Format............................................UTF-8
Codec ID..........................................S_TEXT/UTF8
Codec Info........................................UTF-8 Plain Text

KódBitster.cz : neomezené stahování nyní rychlostí až 1Gb/s - TIP : 150 GB jen za 99 Kč:
Pouze registrovaní uživatelé mohou vidět odkazy. Registrujte se nebo Přihlašte.

No Pass
Rozbalovat v 7zip (windows) a BetterZip (mac os)

Zkušený (720p)
Uživatelský avatar
Příspěvky: 206
Registrován: 17 pro 2008 23:52

Příspěvekod Walldauf » 19 pro 2011 08:55

Trust / En DTS 5.1 / Cz DD 5.1 / tit.En,Cz,Cz forsed

ObrázekRLS.Trust.2010.BluRay.1080p.DTS.x264-HDMaNiAcS
Obrázek
Obrázek
KódBitster.cz : neomezené stahování nyní rychlostí až 1Gb/s - TIP : 150 GB jen za 99 Kč:
Pouze registrovaní uživatelé mohou vidět odkazy. Registrujte se nebo Přihlašte.

ObrázekObrázekObrázek
KódBitster.cz : neomezené stahování nyní rychlostí až 1Gb/s - TIP : 150 GB jen za 99 Kč:
Pouze registrovaní uživatelé mohou vidět odkazy. Registrujte se nebo Přihlašte.

Obrázek
Obrázek
KódBitster.cz : neomezené stahování nyní rychlostí až 1Gb/s - TIP : 150 GB jen za 99 Kč:
Pouze registrovaní uživatelé mohou vidět odkazy. Registrujte se nebo Přihlašte.


Obrázek
KódBitster.cz : neomezené stahování nyní rychlostí až 1Gb/s - TIP : 150 GB jen za 99 Kč:
Pouze registrovaní uživatelé mohou vidět odkazy. Registrujte se nebo Přihlašte.


Obrázek Soubory 001,002,003.........spoj pomocí Total Commanderu.
Obrázek

Pokročilý (576p)
Příspěvky: 149
Registrován: 10 led 2011 21:44

Příspěvekod coxpedro » 19 pro 2011 19:40

Trust / 2010 / 1080p / DTS EN 5.1 / DD 5.1 CZ

Obrázek

Obrázek
KódBitster.cz : neomezené stahování nyní rychlostí až 1Gb/s - TIP : 150 GB jen za 99 Kč:
Pouze registrovaní uživatelé mohou vidět odkazy. Registrujte se nebo Přihlašte.

Drama / Thriller
USA, 2010
Režie:
David Schwimmer
Hrají:
Clive Owen, Catherine Keener, Liana Liberato, Jason Clarke, Viola Davis, Noah Emmerich, Gordon Michaels, Brandon Molale

Čtrnáctiletá Annie se prostřednictvím chatu a webové kamery poprvé zamilovala. Nemohla tušit, že se stala předmětem zájmu anonymního pedofila, který při prvním setkání krutě zneužil její naivity a chladnokrevně ji znásilnil. Pro Annie už nic nebude takové jako dřív. S děsivým traumatem mladé dívky se těžce vyrovnává celá rodina. Vyšetřování FBI navíc dokazuje, že zdaleka nebyla první obětí tohoto internetového sexuálního maniaka. Otec Annie by nejraději vzal spravedlnost do vlastních rukou, dochází však k poznání, že jediné, co teď všichni mohou udělat, je být v této situaci jeden druhému oporou.

Obrázek
RLS:Trust.2010.BluRay.1080p.DTS.x264-HDMaNiAcS-CZ
Format : Matroska
Format version : Version 2
File size : 11.2 GiB
Duration : 1h 45mn
Overall bit rate : 15.2 Mbps
Movie name : Trust.2011.BluRay.1080p.DTS.x264-HDMaNiAcS
Encoded date : UTC 2011-12-19 05:06:49
Writing application : mkvmerge v5.1.0 ('And so it goes') built on Nov 28 2011 23:58:28
Writing library : libebml v1.2.3 + libmatroska v1.3.0

Video
ID : 1
Format : AVC
Format/Info : Advanced Video Codec
Format profile : High@L4.1
Format settings, CABAC : Yes
Format settings, ReFrames : 5 frames
Codec ID : V_MPEG4/ISO/AVC
Duration : 1h 45mn
Bit rate : 13.1 Mbps
Width : 1 920 pixels
Height : 800 pixels
Display aspect ratio : 2.40:1
Frame rate : 23.976 fps
Color space : YUV
Chroma subsampling : 4:2:0
Bit depth : 8 bits
Scan type : Progressive
Bits/(Pixel*Frame) : 0.357
Stream size : 9.51 GiB (85%)
Title : Trust.2011.BluRay.1080p.DTS.x264-HDMaNiAcS
Writing library : x264 core 115 r2008 4c552d8
Encoding settings : cabac=1 / ref=5 / deblock=1:-3:-3 / analyse=0x3:0x133 / me=tesa / subme=10 / psy=1 / psy_rd=0.89:0.10 / mixed_ref=0 / me_range=24 / chroma_me=1 / trellis=2 / 8x8dct=1 / cqm=0 / deadzone=21,11 / fast_pskip=0 / chroma_qp_offset=-3 / threads=12 / sliced_threads=0 / nr=0 / decimate=1 / interlaced=0 / bluray_compat=0 / constrained_intra=0 / bframes=8 / b_pyramid=2 / b_adapt=2 / b_bias=0 / direct=3 / weightb=1 / open_gop=0 / weightp=2 / keyint=250 / keyint_min=23 / scenecut=40 / intra_refresh=0 / rc_lookahead=90 / rc=2pass / mbtree=1 / bitrate=13150 / ratetol=1.0 / qcomp=0.60 / qpmin=10 / qpmax=69 / qpstep=4 / cplxblur=20.0 / qblur=0.5 / ip_ratio=1.40 / aq=1:0.60
Language : English

Audio #1
ID : 2
Format : AC-3
Format/Info : Audio Coding 3
Mode extension : CM (complete main)
Codec ID : A_AC3
Duration : 1h 45mn
Bit rate mode : Constant
Bit rate : 448 Kbps
Channel(s) : 6 channels
Channel positions : Front: L C R, Side: L R, LFE
Sampling rate : 48.0 KHz
Bit depth : 16 bits
Compression mode : Lossy
Stream size : 338 MiB (3%)
Title : Cz DD 5.1
Language : Czech

Audio #2
ID : 3
Format : DTS
Format/Info : Digital Theater Systems
Codec ID : A_DTS
Duration : 1h 45mn
Bit rate mode : Constant
Bit rate : 1 510 Kbps
Channel(s) : 6 channels
Channel positions : Front: L C R, Side: L R, LFE
Sampling rate : 48.0 KHz
Bit depth : 24 bits
Compression mode : Lossy
Stream size : 1.11 GiB (10%)
Title : En DTS 5.1
Language : English

Text #1
ID : 4
Format : UTF-8
Codec ID : S_TEXT/UTF8
Codec ID/Info : UTF-8 Plain Text
Title : Cz forsed
Language : Czech

Text #2
ID : 5
Format : UTF-8
Codec ID : S_TEXT/UTF8
Codec ID/Info : UTF-8 Plain Text
Title : Cz
Language : Czech

Text #3
ID : 6
Format : PGS
Codec ID : S_HDMV/PGS
Codec ID/Info : The same subtitle format used on BDs/HD-DVDs
Title : En
Language : English


Obrázek

Obrázek
KódBitster.cz : neomezené stahování nyní rychlostí až 1Gb/s - TIP : 150 GB jen za 99 Kč:
Pouze registrovaní uživatelé mohou vidět odkazy. Registrujte se nebo Přihlašte.


Obrázek

Obrázek
KódBitster.cz : neomezené stahování nyní rychlostí až 1Gb/s - TIP : 150 GB jen za 99 Kč:
Pouze registrovaní uživatelé mohou vidět odkazy. Registrujte se nebo Přihlašte.


Obrázek

Obrázek

KódBitster.cz : neomezené stahování nyní rychlostí až 1Gb/s - TIP : 150 GB jen za 99 Kč:
Pouze registrovaní uživatelé mohou vidět odkazy. Registrujte se nebo Přihlašte.


Obrázek

Zkušený (720p)
Příspěvky: 250
Registrován: 02 kvě 2010 19:35

Příspěvekod lapepa » 19 pro 2011 20:42

Trust / 1080p / CZ / 2010
Obrázek

Obrázek
KódBitster.cz : neomezené stahování nyní rychlostí až 1Gb/s - TIP : 150 GB jen za 99 Kč:
Pouze registrovaní uživatelé mohou vidět odkazy. Registrujte se nebo Přihlašte.



Obrázek
GENERAL 1080p CZ
Format : Matroska
Format version : Version 2
File size : 11.2 GiB
Duration : 1h 45mn
Overall bit rate : 15.2 Mbps

Writing library : libebml v1.2.3 + libmatroska v1.3.0

Video
ID : 1
Format : AVC
Format/Info : Advanced Video Codec
Format profile : High@L4.1
Format settings, CABAC : Yes
Format settings, ReFrames : 5 frames
Codec ID : V_MPEG4/ISO/AVC
Duration : 1h 45mn
Bit rate : 13.1 Mbps
Width : 1 920 pixels
Height : 800 pixels
Display aspect ratio : 2.40:1
Frame rate : 23.976 fps
Color space : YUV
Chroma subsampling : 4:2:0
Bit depth : 8 bits
Scan type : Progressive
Bits/(Pixel*Frame) : 0.357
Stream size : 9.51 GiB (85%)

Writing library : x264 core 115 r2008 4c552d8
Encoding settings : cabac=1 / ref=5 / deblock=1:-3:-3 / analyse=0x3:0x133 / me=tesa / subme=10 / psy=1 / psy_rd=0.89:0.10 / mixed_ref=0 / me_range=24 / chroma_me=1 / trellis=2 / 8x8dct=1 / cqm=0 / deadzone=21,11 / fast_pskip=0 / chroma_qp_offset=-3 / threads=12 / sliced_threads=0 / nr=0 / decimate=1 / interlaced=0 / bluray_compat=0 / constrained_intra=0 / bframes=8 / b_pyramid=2 / b_adapt=2 / b_bias=0 / direct=3 / weightb=1 / open_gop=0 / weightp=2 / keyint=250 / keyint_min=23 / scenecut=40 / intra_refresh=0 / rc_lookahead=90 / rc=2pass / mbtree=1 / bitrate=13150 / ratetol=1.0 / qcomp=0.60 / qpmin=10 / qpmax=69 / qpstep=4 / cplxblur=20.0 / qblur=0.5 / ip_ratio=1.40 / aq=1:0.60
Language : English

Audio #1
ID : 2
Format : AC-3
Format/Info : Audio Coding 3
Mode extension : CM (complete main)
Codec ID : A_AC3
Duration : 1h 45mn
Bit rate mode : Constant
Bit rate : 448 Kbps
Channel(s) : 6 channels
Channel positions : Front: L C R, Side: L R, LFE
Sampling rate : 48.0 KHz
Bit depth : 16 bits
Compression mode : Lossy
Stream size : 338 MiB (3%)
Title : Cz DD 5.1
Language : Czech

Audio #2
ID : 3
Format : DTS
Format/Info : Digital Theater Systems
Codec ID : A_DTS
Duration : 1h 45mn
Bit rate mode : Constant
Bit rate : 1 510 Kbps
Channel(s) : 6 channels
Channel positions : Front: L C R, Side: L R, LFE
Sampling rate : 48.0 KHz
Bit depth : 24 bits
Compression mode : Lossy
Stream size : 1.11 GiB (10%)
Title : En DTS 5.1
Language : English

Text #1
ID : 4
Format : UTF-8
Codec ID : S_TEXT/UTF8
Codec ID/Info : UTF-8 Plain Text
Title : Cz forsed
Language : Czech

Text #2
ID : 5
Format : UTF-8
Codec ID : S_TEXT/UTF8
Codec ID/Info : UTF-8 Plain Text
Title : Cz
Language : Czech

Text #3
ID : 6
Format : PGS
Codec ID : S_HDMV/PGS

Language : English




Obrázek
KódBitster.cz : neomezené stahování nyní rychlostí až 1Gb/s - TIP : 150 GB jen za 99 Kč:
Pouze registrovaní uživatelé mohou vidět odkazy. Registrujte se nebo Přihlašte.



Obrázek
KódBitster.cz : neomezené stahování nyní rychlostí až 1Gb/s - TIP : 150 GB jen za 99 Kč:
Pouze registrovaní uživatelé mohou vidět odkazy. Registrujte se nebo Přihlašte.



Obrázek
KódBitster.cz : neomezené stahování nyní rychlostí až 1Gb/s - TIP : 150 GB jen za 99 Kč:
Pouze registrovaní uživatelé mohou vidět odkazy. Registrujte se nebo Přihlašte.


Obrázek
KódBitster.cz : neomezené stahování nyní rychlostí až 1Gb/s - TIP : 150 GB jen za 99 Kč:
Pouze registrovaní uživatelé mohou vidět odkazy. Registrujte se nebo Přihlašte.

Expert (1080p)
Příspěvky: 390
Registrován: 09 dub 2009 09:38

Příspěvekod gogomiro » 20 pro 2011 04:00

Trust / 2010 / 1080p / DD 5.1 (EN,CZ)

original release Trust.2010.LIMITED.1080p.Bluray.x264-MaxHD - obsahuje aj forced+full cz titulky

Obrázek

ObrázekObrázek
Obrázek 1080p
KódBitster.cz : neomezené stahování nyní rychlostí až 1Gb/s - TIP : 150 GB jen za 99 Kč:
Pouze registrovaní uživatelé mohou vidět odkazy. Registrujte se nebo Přihlašte.

Obrázek
KódBitster.cz : neomezené stahování nyní rychlostí až 1Gb/s - TIP : 150 GB jen za 99 Kč:
Pouze registrovaní uživatelé mohou vidět odkazy. Registrujte se nebo Přihlašte.

Obrázek Share-rapid, CZshare, Hellshare [999mb]
KódBitster.cz : neomezené stahování nyní rychlostí až 1Gb/s - TIP : 150 GB jen za 99 Kč:
Pouze registrovaní uživatelé mohou vidět odkazy. Registrujte se nebo Přihlašte.

KódBitster.cz : neomezené stahování nyní rychlostí až 1Gb/s - TIP : 150 GB jen za 99 Kč:
Pouze registrovaní uživatelé mohou vidět odkazy. Registrujte se nebo Přihlašte.

KódBitster.cz : neomezené stahování nyní rychlostí až 1Gb/s - TIP : 150 GB jen za 99 Kč:
Pouze registrovaní uživatelé mohou vidět odkazy. Registrujte se nebo Přihlašte.

-= Pridaný záznam pre opravu dát 3% =-
-= Linky sú kombinovateľné / Links are interchangable =-
Obrázek
KódBitster.cz : neomezené stahování nyní rychlostí až 1Gb/s - TIP : 150 GB jen za 99 Kč:
Pouze registrovaní uživatelé mohou vidět odkazy. Registrujte se nebo Přihlašte.
Neželám si reupload mojich HD príspevkov+vynášanie na torrent trackery. V prípade mŕtvych linkiek mi napíšte (PM)SZ a ja sa budem snažiť čo najskôr to opraviť.

Zpět na Smetiště

Kdo je online

Uživatelé procházející toto fórum: Žádní registrovaní uživatelé a 4 návštevníků